Ветреная река / Wind River / 2017 / ДБ / HEVC / BDRip (1080p)

Для того, чтобы скачать раздачу - скачайте торрент-файл и запустите его при помощи клиента. Дополнительная информация на Форуме здесь.
loading...

Название: Ветреная река
Оригинальное название: Wind River
Год выпуска: 2017
Жанр: Боевик, триллер, криминал, детектив
Выпущено: Великобритания, Канада, США, Acacia Filmed Entertainment, Film 44, Ingenious Media
Режиссер: Тейлор Шеридан
В ролях: Джереми Реннер, Элизабет Олсен, Джон Бернтал, Келси Чоу, Джулия Джонс, Тео Брионес, Апесанахкват, Грэм Грин, Танту Кардинал, Эрик Ланж, Джил Бирмингем

О фильме: Край, где водятся волки и пумы, а морозные ослепительно-солнечные дни сменяются метелью, где индейцы живут в резервации «Ветреная река», охотник, идущий по следу пумы на снегоходе, натыкается на труп девушки. В край, где нет подкрепления - каждый сам за себя, приезжает молодая сотрудница ФБР и просит охотника помочь найти убийцу. Сюжет фильма основан на реальных событиях.

Качество: BDRip (1080p)
Видео: HEVC, 6309 Кбит/с, 1920x804
Аудио: Русский (AC3, 6 ch, 384 Кбит/с)
Размер: 5.09 ГБ
Продолжительность: 01:46:47
Перевод: Дублированный
Комментарии ( Комментировать )
Alexx264
23 февраля 2018 в 18:57 | Ответить
Отличный фильм
superTany
7 февраля 2018 в 17:48 | Ответить
Фильм смотрелм с мужем и очень тронул обоих... Тяжело осознавать всю суть происходящего и жить без мести-прощая. Рекомендуем 10 из 10
eu1604spb
14 декабря 2017 в 01:27 | Ответить
хороший фильм но только про американцев про их проблемы, жаль нет нашего кино про наши проблемы
RinoS
2 декабря 2017 в 18:54 | Ответить
Kung Lao )
tesla707
14 ноября 2017 в 09:05 | Ответить
Киберпанк сказал(а):Почему на Кинопоиске вдруг 2017 год поменяли на 2016?

У Кинопоиска всегда с этим проблемы. Уже не первый раз замечаю, что если фильм "переходной" (окончательный монтаж в конце года, а премьера в начале следующего), то Кинопоиск почему-то ставит именно дату когда фильм готов к показу.
Киберпанк
14 ноября 2017 в 06:02 | Ответить
Почему на Кинопоиске вдруг 2017 год поменяли на 2016?
Англоязычная Википедия, imdb.com пишут 2017 год, даже в дате первой примьеры январь 2017.
tesla707
10 ноября 2017 в 19:14 | Ответить
Olyanchik сказал(а):Спасибо за раздачу! Инфо файл с настройками кодирования рипа можно глянуть?

Данный рип я кодировал через VidCoder библиотекой Lavf57.7.2 (в качестве теста с intel quick sync), он настраивает через GUI.
Из основных:
- масштабирование Lanczos
- удаление шумом hqdn3d Light (ставить более мощные фильтры будет картинка размазываться)
- кодировщик предустановка Качество
- FPS постоянный как у источника
- AVG битрейт 6640 два прохода
доп. настойки не ставил (по ощущениям портит картинку).
Пробовал разные варианты и вот эти настройки мне больше всего понравились.

MediaInfo:
Общее
Уникальный идентификатор : 109212169140090764072626859723984353996 (0x52297FA9BE7924D87D06653A37B63ACC)
Полное имя : E:HEVC_1080MyRipWind.River_2017.mkv
Формат : Matroska
Версия формата : Version 4 / Version 2
Размер файла : 5,09 Гбайт
Продолжительность : 1 ч. 46 м.
Общий поток : 6829 Кбит/сек
Дата кодирования : UTC 2017-11-09T18:38:21Z
Программа кодирования : HandBrake 1.0.7 2017040900
Библиотека кодирования : Lavf57.7.2

Видео
Идентификатор : 1
Формат : HEVC
Формат/Информация : High Efficiency Video Coding
Профиль формата : [email protected]@High
Идентификатор кодека : V_MPEGH/ISO/HEVC
Продолжительность : 1 ч. 46 м.
Битрейт : 6309 Кбит/сек
Ширина : 1920 пикселей
Высота : 804 пикселя
Соотношение сторон : 2,40:1
Режим частоты кадров : Постоянный
Частота кадров : 23,976 (24000/1001) кадра/сек
Цветовое пространство : YUV
Субдискретизация насыщенности : 4:2:0
Битовая глубина : 8 бит
Бит/(Пиксели*Кадры) : 0.170
Размер потока : 4,71 Гбайт (92%)
Default : Да
Forced : Нет

Аудио
Идентификатор : 2
Формат : AC-3
Формат/Информация : Audio Coding 3
Идентификатор кодека : A_AC3
Продолжительность : 1 ч. 46 м.
Вид битрейта : Постоянный
Битрейт : 384 Кбит/сек
Каналы : 6 каналов
Расположение каналов : Front: L C R, Side: L R, LFE
Частота : 48,0 КГц
Частота кадров : 31,250 кадров/сек (1536 SPF)
Битовая глубина : 16 бит
Метод сжатия : С потерями
Задержка видео : -5 мс.
Размер потока : 293 Мбайт (6%)
Заголовок : Surround
Язык : Russian
ServiceKind/String : Complete Main
Default : Да
Forced : Нет
Olyanchik
10 ноября 2017 в 18:54 | Ответить
Спасибо за раздачу! Инфо файл с настройками кодирования рипа можно глянуть?
tesla707 сказал(а):Пока iTunes, когда (если) будет Blu-ray CEE переделаю рип, а сейчас выжал по максимум картинку.
tesla707
10 ноября 2017 в 18:42 | Ответить
Пока iTunes, когда (если) будет Blu-ray CEE переделаю рип, а сейчас выжал по максимум картинку.